منتديات أفلامك السنمائية AFlamk
بسم الله الرحمن الرحيم
عزيزي الزائر / عزيزتي الزائرة يرجي التكرم بتسجبل الدخول اذا كنت عضو معنا
او التسجيل ان لم تكن عضو وترغب في الانضمام الي اسرة المنتدي
سنتشرف بتسجيلك
شكرا
[b]ادارة المنتدي


افلام أجنبى | افلام عربى | ألعاب | اغانى اجنبى | عربى | برامج | صور |AFlamk
 
الرئيسيةاليوميةس .و .جبحـثالأعضاءالمجموعاتالتسجيلدخول

شاطر | 
 

 حصريا قبل اى منتدى فيلم The Eagle 2011 V2 TS XViD نسخة اصلية وبدون حقوق

استعرض الموضوع السابق استعرض الموضوع التالي اذهب الى الأسفل 
كاتب الموضوعرسالة
Mr.Mika
:: الريس الكبير ::
:: الريس الكبير ::
avatar

عدد المساهمات : 530
تاريخ التسجيل : 10/10/2009
الموقع : http://aflamk.yoo7.com

مُساهمةموضوع: حصريا قبل اى منتدى فيلم The Eagle 2011 V2 TS XViD نسخة اصلية وبدون حقوق    الأحد فبراير 20, 2011 7:36 pm

حصريا على طرب اكس

فيلم


The Eagle 2011 V2 TS XViD

نسخة اصلية وبدون حقوق

[ندعوك للتسجيل في المنتدى أو التعريف بنفسك لمعاينة هذه الصورة]

[ندعوك للتسجيل في المنتدى أو التعريف بنفسك لمعاينة هذه الصورة]

The Eagle 2011 V2 TS XViD - IMAGiNE
********************************************************************************************************************

Ripper ...........:IMAGiNE IMDB Rating.......:6.6/10
Video Codec.......:XVID Release Date......:13/02/11
Audio Codec.......:MP3 Theatre Date......:11/02/11
Audio Bitrate.....:128 Runtime...........:1h 45mn
Subtitles.........:NIL Language..........:ENGLISH
Resolution........:720 x 304 IMDb URL..........:http://www.imdb.com/title/tt1034389/
DETAILS:

Video
ID : 0
Format : MPEG-4 Visual
Format profile : Advanced Simple@L5
Format settings, BVOP : Yes
Format settings, QPel : No
Format settings, GMC : No warppoints
Format settings, Matrix : Default (MPEG)
Muxing mode : Packed bitstream
Codec ID : XVID
Codec ID/Hint : XviD
Duration : 1h 45mn
Bit rate : 1 731 Kbps
Width : 720 pixels
Height : 304 pixels
Display aspect ratio : 2.35:1
Frame rate : 25.000 fps
Color space : YUV
Chroma subsampling : 4:2:0
Bit depth : 8 bits
Scan type : Progressive
Bits/(Pixel*Frame) : 0.316
Stream size : 1.28 GiB (93%)
Writing library : XviD 61

Audio
ID : 1
Format : MPEG Audio
Format version : Version 1
Format profile : Layer 3
Codec ID : 55
Codec ID/Hint : MP3
Duration : 1h 45mn
Bit rate mode : Constant
Bit rate : 128 Kbps
Channel(s) : 2 channels
Sampling rate : 44.1 KHz
Stream size : 96.9 MiB (7%)
Alignment : Split accross interleaves
Interleave, duration : 40 ms (1.00 video frame)
Interleave, preload duration : 500 ms


[ندعوك للتسجيل في المنتدى أو التعريف بنفسك لمعاينة هذه الصورة]

[ندعوك للتسجيل في المنتدى أو التعريف بنفسك لمعاينة هذه الصورة]

[ندعوك للتسجيل في المنتدى أو التعريف بنفسك لمعاينة هذه الصورة]

[ندعوك للتسجيل في المنتدى أو التعريف بنفسك لمعاينة هذه الصورة]

[ندعوك للتسجيل في المنتدى أو التعريف بنفسك لمعاينة هذه الصورة]

للتحميل على رابط واحد


fileserve




FileSoniC










MegaUpload








حمل هذا الجزء من رابط اخر

=-=-=-=-=-=-=-=-=-=-=-=-=-=-=-=-=-=-=-=

مصـــــــ ka ــــــــرى وافتــــــــ Mi ــــــــــخر


[ندعوك للتسجيل في المنتدى أو التعريف بنفسك لمعاينة هذه الصورة]

[ندعوك للتسجيل في المنتدى أو التعريف بنفسك لمعاينة هذه الصورة]
الرجوع الى أعلى الصفحة اذهب الى الأسفل
معاينة صفحة البيانات الشخصي للعضو http://aflamk.yoo7.com
العبادي70
زبون جديد


عدد المساهمات : 1
تاريخ التسجيل : 13/07/2011

مُساهمةموضوع: رد: حصريا قبل اى منتدى فيلم The Eagle 2011 V2 TS XViD نسخة اصلية وبدون حقوق    الأربعاء يوليو 13, 2011 10:05 am

لماذا لا تظهر روابط التحميل
فقط مجرد صور
الرجوع الى أعلى الصفحة اذهب الى الأسفل
معاينة صفحة البيانات الشخصي للعضو
 
حصريا قبل اى منتدى فيلم The Eagle 2011 V2 TS XViD نسخة اصلية وبدون حقوق
استعرض الموضوع السابق استعرض الموضوع التالي الرجوع الى أعلى الصفحة 
صفحة 1 من اصل 1
 مواضيع مماثلة
-
» اجمل ابوذيات الحب
» عاصفه شمسيه ستهاجم الارض 2011 خبر من وكلاه ناسا
» مكياج 2011 نايس
» اسم سيارة
» محمد حماقي ويارا يجتمعان في ختام مهرجان دبي للتسوق

صلاحيات هذا المنتدى:لاتستطيع الرد على المواضيع في هذا المنتدى
منتديات أفلامك السنمائية AFlamk :: قسم الملتيميديا :: افلام بدون حقوق-
انتقل الى: